<?xml version="1.0" standalone="no"?>
<!DOCTYPE svg PUBLIC "-//W3C//DTD SVG 1.1//EN" "http://www.w3.org/Graphics/SVG/1.1/DTD/svg11.dtd" >
<svg>
<metadata>
Created by FontForge 20110222 at Mon Nov 14 08:52:55 2011
 By www-data
Copyright (c) 2011, Sol Matas (www.huertatipografica.com.ar), with Reserved Font Name "Bitter"
</metadata>
<defs>
<font id="Bitter-Regular" horiz-adv-x="565" >
  <font-face 
    font-family="Bitter"
    font-weight="400"
    font-stretch="normal"
    units-per-em="1000"
    panose-1="2 0 0 0 0 0 0 0 0 0"
    ascent="800"
    descent="-200"
    x-height="530"
    cap-height="700"
    bbox="-60 -265 1125 935"
    underline-thickness="50"
    underline-position="-50"
    stemh="80"
    stemv="105"
    unicode-range="U+0020-2122"
  />
    <missing-glyph />
    <glyph glyph-name="s" unicode="s" horiz-adv-x="471" 
d="M46 160h70l11 -86s40 -11 88 -9c60 2 112 19 110 79c-4 110 -276 58 -279 238c-2 105 77 156 183 158c79 1 171 -30 171 -30l-3 -135h-65l-16 78s-41 14 -86 12c-46 -2 -86 -16 -84 -67c4 -109 276 -65 279 -235c2 -115 -96 -169 -211 -173c-85 -4 -167 22 -167 22z" />
    <glyph glyph-name="b" unicode="b" horiz-adv-x="585" 
d="M180 770v-288c33 26 85 58 150 58c145 0 210 -105 210 -260c0 -170 -95 -290 -275 -290c-110 0 -185 25 -185 25v675l-80 20v55zM180 80c0 0 26 -10 100 -10c116 0 155 90 155 200s-35 190 -125 190s-130 -65 -130 -65v-315z" />
    <glyph glyph-name="f" unicode="f" horiz-adv-x="440" 
d="M70 515l90 10v60c0 120 65 195 185 195c95 0 150 -35 150 -35v-125h-70l-15 80s-25 5 -60 5c-70 0 -90 -40 -90 -100v-80h132l-3 -75h-129v-370l97 -25v-55h-282v55l85 25v370h-90v65z" />
    <glyph glyph-name="e" unicode="e" horiz-adv-x="530" 
d="M490 252l-345 -2c0 -110 59 -180 145 -180c100 0 168 55 168 55l35 -52s-93 -83 -213 -83c-160 0 -240 105 -240 270c0 160 100 280 245 280s210 -85 210 -235c0 -25 -5 -53 -5 -53zM149 325h240c0 75 -29 137 -109 137s-125 -62 -131 -137z" />
    <glyph glyph-name="i" unicode="i" horiz-adv-x="335" 
d="M105 695c0 45 30 70 65 70c40 0 65 -20 65 -70c0 -45 -35 -70 -65 -70c-40 0 -65 25 -65 70zM225 530v-450l75 -25v-55h-260v55l85 25v370l-85 20v55z" />
    <glyph glyph-name="n" unicode="n" horiz-adv-x="665" 
d="M205 530l9 -71c24 21 103 81 186 81c110 0 160 -70 160 -180v-280l75 -25v-55h-240v55l65 25v270c0 70 -25 105 -90 105c-85 0 -145 -80 -145 -80v-295l65 -25v-55h-250v55l85 25v370l-85 20v55z" />
    <glyph glyph-name="o" unicode="o" horiz-adv-x="570" 
d="M295 540c150 0 235 -105 235 -265c0 -170 -100 -285 -250 -285s-240 90 -240 270c0 170 105 280 255 280zM290 460c-100 0 -145 -65 -145 -195c0 -120 40 -195 140 -195s140 70 140 200c0 110 -35 190 -135 190z" />
    <glyph glyph-name="v" unicode="v" horiz-adv-x="559" 
d="M230 530v-60l-70 -10l119 -370l120 365l-69 15v55l224 5v-60l-55 -10l-170 -460h-110l-164 455l-50 15v55z" />
    <glyph glyph-name="h" unicode="h" horiz-adv-x="650" 
d="M210 770v-302c31 26 101 72 175 72c110 0 160 -70 160 -180v-280l75 -25v-55h-240v55l65 24v271c0 70 -22 105 -87 105c-85 0 -148 -80 -148 -80v-295l65 -25v-55h-250v55l85 25v610l-85 20v55z" />
    <glyph glyph-name="a" unicode="a" 
d="M75 500c0 0 110 40 195 40c116 0 185 -40 185 -155v-305l80 -20v-55l-155 -5l-21 70c-34 -34 -94 -80 -164 -80c-95 0 -150 55 -150 150c0 115 90 155 230 155h80v80c0 60 -35 90 -95 90s-101 -15 -101 -15l-14 -75h-65zM355 230h-70c-100 0 -138 -25 -138 -85
c0 -45 28 -75 73 -75c75 0 135 80 135 80v80z" />
    <glyph glyph-name="c" unicode="c" horiz-adv-x="510" 
d="M465 365h-65l-15 85s-40 10 -90 10c-95 0 -150 -60 -150 -185c0 -135 60 -205 155 -205s155 60 155 60l35 -60s-90 -80 -200 -80c-165 0 -250 105 -250 275c0 160 100 275 260 275c90 0 170 -40 170 -40z" />
    <glyph glyph-name="g" unicode="g" horiz-adv-x="585" 
d="M560 525v-55l-97 -14s27 -36 27 -101c0 -135 -90 -195 -220 -195c-45 0 -75 9 -75 9l-5 -94h155c130 0 200 -50 200 -145c0 -110 -85 -180 -260 -180c-140 0 -240 35 -240 145c0 90 105 125 105 125s-60 5 -60 57c0 33 52 113 52 113s-77 35 -77 155
c0 130 90 195 220 195c65 0 100 -19 100 -19zM320 0h-110s-65 -30 -65 -90c0 -70 60 -85 155 -85c100 0 150 30 150 95s-50 80 -130 80zM280 470c-80 0 -115 -40 -115 -120c0 -70 35 -120 110 -120c80 0 115 35 115 120c0 75 -35 120 -110 120z" />
    <glyph glyph-name="j" unicode="j" horiz-adv-x="289" 
d="M209 530v-575c0 -120 -65 -195 -185 -195c-25 0 -64 5 -64 5l9 70h50c70 0 90 40 90 100v515l-85 20v55zM84 695c0 45 30 70 65 70c40 0 65 -20 65 -70c0 -45 -35 -70 -65 -70c-40 0 -65 25 -65 70z" />
    <glyph glyph-name="k" unicode="k" horiz-adv-x="585" 
d="M210 770v-440h85l75 126l-45 14v55l220 5v-60l-71 -12h-1l-103 -153l129 -225h1l75 -25v-55h-135l-143 255h-87v-175l65 -25v-55h-250v55l85 25v610l-85 20v55z" />
    <glyph glyph-name="l" unicode="l" horiz-adv-x="317" 
d="M212 770v-690l100 -25v-55h-287v55l85 25v610l-85 20v55z" />
    <glyph glyph-name="m" unicode="m" horiz-adv-x="980" 
d="M205 530l9 -71c23 22 99 81 181 81c72 0 116 -34 139 -86c13 13 94 86 186 86c110 0 155 -70 155 -180v-280l75 -25v-55h-240v55l65 25v270c0 70 -20 105 -85 105c-85 0 -140 -80 -140 -80v-295l65 -25v-55h-230v55l65 25v270c0 70 -20 105 -85 105
c-85 0 -140 -80 -140 -80v-295l65 -25v-55h-250v55l85 25v370l-85 20v55z" />
    <glyph glyph-name="r" unicode="r" horiz-adv-x="465" 
d="M205 530l9 -73c25 28 83 83 151 83c50 0 90 -15 90 -15l-5 -145h-65l-15 75c-75 0 -123 -49 -145 -78v-297l100 -25v-55h-285v55l85 25v370l-85 20v55z" />
    <glyph glyph-name="t" unicode="t" horiz-adv-x="395" 
d="M220 671v-146h145v-75h-145v-321c0 -46 22 -61 50 -61c24 0 52 11 78 25l27 -53c-45 -33 -90 -50 -140 -50c-60 0 -115 33 -115 145v315h-100v65l100 10v126z" />
    <glyph glyph-name="u" unicode="u" horiz-adv-x="650" 
d="M540 530v-450l85 -20v-55l-165 -5l-10 70c-24 -21 -103 -80 -185 -80c-110 0 -160 69 -160 179v281l-85 20v55l185 5v-351c0 -70 25 -104 90 -104c85 0 145 79 145 79v296l-85 20v55z" />
    <glyph glyph-name="w" unicode="w" horiz-adv-x="830" 
d="M230 530v-60l-75 -10l85 -370l131 435l95 15l124 -450l80 365l-70 15v55l225 5v-60l-58 -10l-122 -460h-115l-95 310l-24 96l-21 -96l-95 -310h-115l-125 455l-50 15v55z" />
    <glyph glyph-name="x" unicode="x" 
d="M243 530v-60l-35 -6l77 -129l120 190l145 5v-60l-85 -15l-125 -185l128 -192l92 -23v-55h-244v55l40 12l-82 132l-124 -199h-145v55l88 23l127 187l-128 191l-77 14v55z" />
    <glyph glyph-name="y" unicode="y" horiz-adv-x="577" 
d="M245 530v-60l-70 -10l120 -350l110 345l-70 15v55l237 5v-60l-65 -10l-142 -396c-53 -139 -105 -304 -270 -304c-25 0 -64 5 -64 5l9 70h50c70 0 115 66 159 163l-179 457l-60 15v55z" />
    <glyph glyph-name="z" unicode="z" horiz-adv-x="505" 
d="M470 530v-75l-293 -380h204l14 80h70v-155h-400v75l292 380h-188l-14 -75h-70v150h385z" />
    <glyph glyph-name="space" unicode=" " horiz-adv-x="230" 
 />
    <glyph glyph-name="p" unicode="p" horiz-adv-x="615" 
d="M195 530l8 -56c30 28 83 66 152 66c145 0 215 -105 215 -260c0 -170 -85 -290 -270 -290c-33 0 -63 6 -90 14v-159l105 -20v-55h-285v55l80 20v605l-85 20v55zM210 390v-300s30 -20 105 -20c116 0 150 90 150 200s-40 190 -130 190s-125 -70 -125 -70z" />
    <glyph glyph-name="O" unicode="O" horiz-adv-x="755" 
d="M385 710c195 0 310 -135 310 -350c0 -220 -135 -370 -330 -370s-305 125 -305 355c0 220 125 365 325 365zM380 625c-130 0 -205 -85 -205 -275c0 -180 65 -275 195 -275s210 90 210 280c0 180 -70 270 -200 270z" />
    <glyph glyph-name="H" unicode="H" horiz-adv-x="795" 
d="M325 60v-60h-285v60l85 20v540l-85 20v55l285 5v-60l-95 -20v-220h335v220l-95 20v55l285 5v-60l-85 -20v-540l85 -20v-60h-285v60l95 20v240h-335v-240z" />
    <glyph glyph-name="I" unicode="I" horiz-adv-x="355" 
d="M315 60v-60h-275v60l85 20v540l-85 20v55l275 5v-60l-85 -20v-540z" />
    <glyph glyph-name="B" unicode="B" horiz-adv-x="630" 
d="M40 0v60l85 20v540l-85 20v55l185 5h115c125 0 215 -55 215 -175c0 -90 -46 -141 -130 -162c105 -24 155 -83 155 -163c0 -140 -90 -200 -255 -200h-285zM225 325v-245h105c95 0 145 40 145 115c0 100 -65 130 -175 130h-75zM225 620v-220h75c90 0 150 35 150 115
c0 70 -50 105 -115 105h-110z" />
    <glyph glyph-name="C" unicode="C" horiz-adv-x="645" 
d="M520 491l-27 114s-53 20 -128 20c-135 0 -210 -100 -210 -285c0 -180 90 -260 215 -260c105 0 200 80 200 80l40 -65s-100 -105 -250 -105c-200 0 -320 120 -320 345c0 230 130 375 335 375c110 0 225 -50 225 -50l-5 -169h-75z" />
    <glyph glyph-name="D" unicode="D" horiz-adv-x="730" 
d="M250 80h115c125 0 210 85 210 275c0 185 -80 265 -205 265h-120v-540zM60 0v60l85 20v540l-85 20v55l190 5h125c195 0 315 -120 315 -340s-130 -360 -330 -360h-300z" />
    <glyph glyph-name="E" unicode="E" horiz-adv-x="625" 
d="M465 620h-215v-215h230v-80h-230v-245h230l20 100h65v-180h-505v60l85 20v540l-85 20v55l190 5h305v-170h-65z" />
    <glyph glyph-name="F" unicode="F" horiz-adv-x="570" 
d="M445 620h-215v-225h230v-80h-230v-235l100 -20v-60h-290v60l85 20v540l-85 20v55l190 5h305v-165h-65z" />
    <glyph glyph-name="G" unicode="G" horiz-adv-x="751" 
d="M635 264v-214s-106 -60 -255 -60c-200 0 -320 120 -320 345c0 230 130 375 335 375c110 0 225 -50 225 -50l-5 -165h-65l-30 110s-60 20 -135 20c-135 0 -210 -100 -210 -285c0 -180 90 -265 220 -265c70 0 140 25 140 25v164l-85 20v55l260 5v-60z" />
    <glyph glyph-name="L" unicode="L" horiz-adv-x="530" 
d="M225 620v-540h205l20 115h70v-195h-485v60l85 20v540l-85 20v55l275 5v-60z" />
    <glyph glyph-name="N" unicode="N" horiz-adv-x="790" 
d="M545 0l-330 551v-471l95 -20v-60h-270v60l85 20v540l-85 20v55l210 5l330 -559v479l-85 20v55l260 5v-60l-85 -20v-620h-125z" />
    <glyph glyph-name="J" unicode="J" horiz-adv-x="359" 
d="M44 695l275 5v-60l-85 -20v-575c0 -120 -70 -195 -190 -195c-25 0 -64 5 -64 5l9 75h50c65 0 90 35 90 95v595l-85 20v55z" />
    <glyph glyph-name="K" unicode="K" horiz-adv-x="710" 
d="M325 60v-60h-285v60l85 20v540l-85 20v55l285 5v-60l-95 -20v-220h92l173 295l165 5v-60l-99 -20l-152 -253l206 -287l85 -20v-60h-285v60l85 20l-172 240h-98v-240z" />
    <glyph glyph-name="M" unicode="M" horiz-adv-x="875" 
d="M565 0v60l95 20v500l-30 -75l-155 -315l-80 -5l-155 325l-25 70v-500l95 -20v-60h-270v60l85 20v540l-85 20v55l225 5l181 -400l189 395l210 5v-60l-85 -20v-540l85 -20v-60h-280z" />
    <glyph glyph-name="P" unicode="P" horiz-adv-x="590" 
d="M40 0v60l85 20v540l-85 20v55l190 5h105c150 0 230 -80 230 -205c0 -155 -100 -235 -270 -235h-65v-180l85 -20v-60h-275zM230 620v-280h65c110 0 165 50 165 140c0 80 -45 140 -130 140h-100z" />
    <glyph glyph-name="Q" unicode="Q" horiz-adv-x="740" 
d="M785 -65l40 -60s-100 -60 -155 -60c-40 0 -90 31 -130 55l-199 122c-179 13 -281 136 -281 353c0 220 135 365 335 365s310 -135 310 -350c0 -180 -87 -313 -228 -355l108 -65c31 -18 70 -40 105 -40s95 35 95 35zM390 625c-140 0 -220 -90 -220 -275
c0 -175 70 -275 210 -275s215 95 215 280c0 175 -65 270 -205 270z" />
    <glyph glyph-name="S" unicode="S" horiz-adv-x="598" 
d="M150 205l20 -105s45 -27 110 -25c73 1 154 36 153 107c-3 154 -357 87 -361 329c-2 140 112 197 237 199c95 2 211 -40 211 -40l-5 -170h-65l-34 107s-51 19 -106 18c-90 -1 -134 -47 -133 -97c3 -152 357 -94 360 -319c3 -150 -121 -217 -261 -220
c-105 -1 -206 41 -206 41v175h80z" />
    <glyph glyph-name="T" unicode="T" 
d="M435 60v-60h-305v60l100 20v540h-130l-25 -100h-65v180h545v-180h-65l-25 100h-130v-540z" />
    <glyph glyph-name="U" unicode="U" horiz-adv-x="790" 
d="M665 620v-335c0 -185 -65 -295 -275 -295c-195 0 -265 95 -265 280v350l-85 20v55l285 5v-60l-95 -20v-350c0 -150 50 -195 165 -195c125 0 165 55 165 210v335l-95 20v55l285 5v-60z" />
    <glyph glyph-name="A" unicode="A" horiz-adv-x="725" 
d="M5 0v60l82 19l228 616l100 5l222 -621l83 -19v-60h-290v60l93 19l-38 111h-260l-39 -111l94 -19v-60h-275zM357 571l-105 -301h206z" />
    <glyph glyph-name="V" unicode="V" horiz-adv-x="700" 
d="M295 0l-213 620l-77 20v55l280 5v-60l-91 -19l157 -486l167 485l-93 20v55l270 5v-60l-78 -20l-222 -620h-100z" />
    <glyph glyph-name="Y" unicode="Y" horiz-adv-x="645" 
d="M185 0v60l85 20v179l-193 362l-67 19v55l250 5v-60l-68 -20l133 -280l147 280l-77 20v55l240 5v-60l-62 -18l-198 -361v-181l85 -20v-60h-275z" />
    <glyph glyph-name="W" unicode="W" horiz-adv-x="1035" 
d="M250 0l-167 620l-78 20v55l280 5v-60l-87 -20l107 -453l165 528l95 5l162 -544l124 464l-91 20v55l270 5v-60l-79 -20l-176 -620h-110l-120 460l-29 108l-31 -113l-135 -455h-100z" />
    <glyph glyph-name="X" unicode="X" horiz-adv-x="700" 
d="M10 0v60l65 15l210 280l-185 265l-75 20v55l265 5v-60l-65 -20l130 -190l130 190l-70 20v55l265 5v-60l-90 -20l-180 -260l195 -280l85 -20v-60h-270v60l60 15l-140 205l-150 -200l85 -20v-60h-265z" />
    <glyph glyph-name="Z" unicode="Z" horiz-adv-x="615" 
d="M70 700h505v-70l-400 -550h310l20 100h65v-180h-530v70l400 550h-280l-25 -100h-65v180z" />
    <glyph glyph-name="zero" unicode="0" horiz-adv-x="645" 
d="M335 710c190 0 250 -125 250 -350c0 -235 -80 -370 -260 -370s-255 130 -255 355s75 365 265 365zM330 625c-110 0 -150 -90 -150 -275c0 -180 45 -275 150 -275s145 95 145 280c0 180 -35 270 -145 270z" />
    <glyph glyph-name="one" unicode="1" horiz-adv-x="512" 
d="M487 85v-85h-409v85h154v500l-170 -110l-42 72l233 153h84v-615h150z" />
    <glyph glyph-name="two" unicode="2" horiz-adv-x="570" 
d="M45 0v85c235 210 345 315 345 425c0 70 -50 115 -135 115c-55 0 -105 -20 -105 -20l-10 -95h-80l-5 160s110 40 205 40c150 0 240 -50 240 -190c0 -130 -100 -245 -315 -435h335v-85h-475z" />
    <glyph glyph-name="three" unicode="3" horiz-adv-x="550" 
d="M140 405h80c90 0 150 40 150 120c0 60 -50 100 -130 100c-60 0 -110 -20 -110 -20l-10 -90h-80l-5 155s110 40 210 40c135 0 230 -50 230 -175c0 -86 -43 -145 -130 -167c93 -19 145 -88 145 -158c0 -165 -145 -220 -265 -220c-130 0 -205 50 -205 50l30 80
s85 -45 180 -45c90 0 150 45 150 130c0 75 -65 120 -165 120h-75v80z" />
    <glyph glyph-name="four" unicode="4" horiz-adv-x="610" 
d="M20 240l320 475l115 -15v-450h115v-85h-115v-165h-103v165h-322zM352 580l-222 -330h222v330z" />
    <glyph glyph-name="five" unicode="5" horiz-adv-x="530" 
d="M452 700l-3 -85h-282l-9 -190h32c182 0 290 -85 290 -210c0 -150 -130 -225 -250 -225c-130 0 -210 50 -210 50l30 80s80 -45 175 -45c75 0 145 45 145 135s-80 135 -205 135h-105l13 355h379z" />
    <glyph glyph-name="six" unicode="6" horiz-adv-x="600" 
d="M495 620c0 0 -30 5 -75 5c-235 0 -250 -245 -250 -245s70 50 170 50c115 0 215 -75 215 -210c0 -140 -110 -230 -240 -230c-175 0 -255 130 -255 305c0 240 120 415 365 415c50 0 75 -10 75 -10zM165 300v-30c0 -140 70 -195 150 -195s135 50 135 135
c0 90 -50 135 -140 135c-80 0 -145 -45 -145 -45z" />
    <glyph glyph-name="seven" unicode="7" horiz-adv-x="502" 
d="M5 700h480v-75l-267 -625h-115l265 610h-268l-20 -95h-75v185z" />
    <glyph glyph-name="eight" unicode="8" horiz-adv-x="590" 
d="M530 530c0 -100 -90 -145 -129 -159c74 -31 139 -76 139 -171c0 -120 -95 -210 -255 -210c-155 0 -235 85 -235 200c0 111 111 165 138 177c-65 32 -118 74 -118 158c0 125 95 185 240 185s220 -75 220 -180zM430 195c0 75 -74 104 -155 136c-26 -12 -115 -51 -115 -136
c0 -75 50 -119 135 -119s135 44 135 119zM175 525c0 -72 70 -99 143 -125c33 12 107 50 107 125c0 60 -45 100 -125 100s-125 -40 -125 -100z" />
    <glyph glyph-name="nine" unicode="9" horiz-adv-x="600" 
d="M105 80c0 0 35 -5 80 -5c240 0 245 250 245 250s-70 -50 -170 -50c-115 0 -215 70 -215 205c0 145 110 230 240 230c175 0 255 -130 255 -305c0 -240 -115 -415 -360 -415c-50 0 -80 10 -80 10zM435 405v30c0 135 -70 190 -150 190s-135 -50 -135 -135
c0 -90 50 -130 140 -130c80 0 145 45 145 45z" />
    <glyph glyph-name="period" unicode="." horiz-adv-x="260" 
d="M65 60c0 45 30 70 65 70c40 0 65 -25 65 -70s-30 -70 -65 -70c-40 0 -65 25 -65 70z" />
    <glyph glyph-name="tilde" unicode="&#x2dc;" 
d="M130 635l-35 35s40 94 110 94s110 -46 170 -46c40 0 65 42 65 42l35 -35s-35 -90 -105 -90s-110 44 -170 44c-40 0 -70 -44 -70 -44z" />
    <glyph glyph-name="ntilde" unicode="&#xf1;" horiz-adv-x="665" 
d="M205 530l9 -71c24 21 103 81 186 81c110 0 160 -70 160 -180v-280l75 -25v-55h-240v55l65 25v270c0 70 -25 105 -90 105c-85 0 -145 -80 -145 -80v-295l65 -25v-55h-250v55l85 25v370l-85 20v55zM178 636l-35 35s37 93 110 93c70 0 107 -45 167 -45c37 0 68 42 68 42
l35 -35s-35 -91 -108 -91c-70 0 -107 45 -167 45c-43 0 -70 -44 -70 -44z" />
    <glyph glyph-name="Ntilde" unicode="&#xd1;" horiz-adv-x="800" 
d="M760 700v-60l-85 -20v-620h-125l-330 551v-471l95 -20v-60h-270v60l85 20v540l-85 20v55l210 5l330 -559v479l-85 20v55zM235 766l-35 30s40 94 110 94s115 -46 175 -46c40 0 65 42 65 42l35 -30s-35 -90 -105 -90s-115 44 -175 44c-40 0 -70 -44 -70 -44z" />
    <glyph glyph-name="comma" unicode="," horiz-adv-x="265" 
d="M70 63c0 38 26 67 65 67c35 0 65 -18 65 -74s-45 -135 -115 -210l-45 38s53 70 53 106c0 20 -23 38 -23 73z" />
    <glyph glyph-name="semicolon" unicode=";" horiz-adv-x="280" 
d="M90 -154c70 75 115 154 115 210s-30 74 -65 74c-39 0 -65 -29 -65 -67c0 -35 23 -53 23 -73c0 -36 -53 -106 -53 -106zM74 385c0 45 30 70 65 70c40 0 65 -25 65 -70s-30 -70 -65 -70c-40 0 -65 25 -65 70z" />
    <glyph glyph-name="exclam" unicode="!" horiz-adv-x="320" 
d="M220 750l-15 -500l-85 -5l-15 505h115zM95 60c0 45 30 70 65 70c40 0 65 -25 65 -70s-30 -70 -65 -70c-40 0 -65 25 -65 70z" />
    <glyph glyph-name="question" unicode="?" horiz-adv-x="481" 
d="M131 60c0 45 30 70 65 70c40 0 65 -25 65 -70s-30 -70 -65 -70c-40 0 -65 25 -65 70zM233 234l-90 -6s-9 68 -9 98c0 87 177 143 177 254c0 55 -35 80 -105 80c-50 0 -105 -13 -105 -13l-16 75s66 23 126 23c105 0 205 -35 205 -155c0 -150 -185 -205 -185 -294
c0 -34 2 -62 2 -62z" />
    <glyph glyph-name="exclamdown" unicode="&#xa1;" horiz-adv-x="315" 
d="M220 480c0 -45 -30 -70 -65 -70c-40 0 -65 25 -65 70s30 70 65 70c40 0 65 -25 65 -70zM100 -210l15 500l85 5l15 -505h-115z" />
    <glyph glyph-name="questiondown" unicode="&#xbf;" horiz-adv-x="476" 
d="M350 480c0 -45 -30 -70 -65 -70c-40 0 -65 25 -65 70s30 70 65 70c40 0 65 -25 65 -70zM248 306l90 6s9 -68 9 -98c0 -87 -177 -143 -177 -254c0 -55 35 -80 105 -80c50 0 105 13 105 13l16 -75s-66 -23 -126 -23c-105 0 -205 35 -205 155c0 150 185 205 185 294
c0 34 -2 62 -2 62z" />
    <glyph glyph-name="ellipsis" unicode="&#x2026;" horiz-adv-x="720" 
d="M55 60c0 45 30 70 65 70c40 0 65 -25 65 -70s-30 -70 -65 -70c-40 0 -65 25 -65 70zM295 60c0 45 30 70 65 70c40 0 65 -25 65 -70s-30 -70 -65 -70c-40 0 -65 25 -65 70zM535 60c0 45 30 70 65 70c40 0 65 -25 65 -70s-30 -70 -65 -70c-40 0 -65 25 -65 70z" />
    <glyph glyph-name="endash" unicode="&#x2013;" horiz-adv-x="500" 
d="M0 285v80h500v-80h-500z" />
    <glyph glyph-name="hyphen" unicode="-" horiz-adv-x="375" 
d="M60 230v85h260v-85h-260z" />
    <glyph glyph-name="dieresis" unicode="&#xa8;" horiz-adv-x="515" 
d="M100 700c0 38 25 60 55 60c34 0 55 -22 55 -60s-25 -60 -55 -60c-34 0 -55 22 -55 60zM305 700c0 38 25 60 55 60c34 0 55 -22 55 -60s-25 -60 -55 -60c-34 0 -55 22 -55 60z" />
    <glyph glyph-name="acute" unicode="&#xb4;" horiz-adv-x="420" 
d="M325 760l-195 -125l-40 55l185 145z" />
    <glyph glyph-name="colon" unicode=":" horiz-adv-x="280" 
d="M75 60c0 45 30 70 65 70c40 0 65 -25 65 -70s-30 -70 -65 -70c-40 0 -65 25 -65 70zM75 385c0 45 30 70 65 70c40 0 65 -25 65 -70s-30 -70 -65 -70c-40 0 -65 25 -65 70z" />
    <glyph glyph-name="underscore" unicode="_" horiz-adv-x="500" 
d="M0 -150v70h500v-70h-500z" />
    <glyph glyph-name="quotedbl" unicode="&#x22;" horiz-adv-x="388" 
d="M333 770l-21 -250h-75v250h96zM160 770l-20 -250h-75v250h95z" />
    <glyph glyph-name="quotedblright" unicode="&#x201d;" horiz-adv-x="475" 
d="M55 534c0 0 53 70 53 106c0 20 -23 38 -23 73c0 38 26 67 65 67c35 0 65 -18 65 -74s-45 -135 -115 -210zM250 534c0 0 53 70 53 106c0 20 -23 38 -23 73c0 38 26 67 65 67c35 0 65 -18 65 -74s-45 -135 -115 -210z" />
    <glyph glyph-name="quotedblleft" unicode="&#x201c;" horiz-adv-x="475" 
d="M390 563c0 -38 -26 -67 -65 -67c-35 0 -65 18 -65 74s45 135 115 210l45 -38s-53 -70 -53 -106c0 -20 23 -38 23 -73zM195 563c0 -38 -26 -67 -65 -67c-35 0 -65 18 -65 74s45 135 115 210l45 -38s-53 -70 -53 -106c0 -20 23 -38 23 -73z" />
    <glyph glyph-name="aacute" unicode="&#xe1;" 
d="M535 5l-155 -5l-21 70c-34 -34 -94 -80 -164 -80c-95 0 -150 55 -150 150c0 115 90 155 230 155h80v80c0 60 -35 90 -95 90s-101 -15 -101 -15l-14 -75h-65l-5 125s110 40 195 40c116 0 185 -40 185 -155v-305l80 -20v-55zM147 145c0 -45 28 -75 73 -75
c75 0 135 80 135 80v80h-70c-100 0 -138 -25 -138 -85zM405 725l-210 -130l-35 50l195 155z" />
    <glyph glyph-name="eacute" unicode="&#xe9;" horiz-adv-x="530" 
d="M490 252l-345 -2c0 -110 59 -180 145 -180c100 0 168 55 168 55l35 -52s-93 -83 -213 -83c-160 0 -240 105 -240 270c0 160 100 280 245 280s210 -85 210 -235c0 -25 -5 -53 -5 -53zM149 325h240c0 75 -29 137 -109 137s-125 -62 -131 -137zM420 725l-210 -130l-35 50
l195 155z" />
    <glyph glyph-name="iacute" unicode="&#xed;" horiz-adv-x="335" 
d="M225 530v-450l75 -25v-55h-260v55l85 25v370l-85 20v55zM310 735l-210 -130l-35 50l195 155z" />
    <glyph glyph-name="oacute" unicode="&#xf3;" horiz-adv-x="570" 
d="M295 540c150 0 235 -105 235 -265c0 -170 -100 -285 -250 -285s-240 90 -240 270c0 170 105 280 255 280zM290 460c-100 0 -145 -65 -145 -195c0 -120 40 -195 140 -195s140 70 140 200c0 110 -35 190 -135 190zM425 725l-210 -130l-35 50l195 155z" />
    <glyph glyph-name="uacute" unicode="&#xfa;" horiz-adv-x="650" 
d="M540 530v-450l85 -20v-55l-165 -5l-10 70c-24 -21 -103 -80 -185 -80c-110 0 -160 69 -160 179v281l-85 20v55l185 5v-351c0 -70 25 -104 90 -104c85 0 145 79 145 79v296l-85 20v55zM460 725l-210 -130l-35 50l195 155z" />
    <glyph glyph-name="macron" unicode="&#xaf;" horiz-adv-x="350" 
d="M40 660v75h270v-75h-270z" />
    <glyph glyph-name="egrave" unicode="&#xe8;" horiz-adv-x="530" 
d="M490 252l-345 -2c0 -110 59 -180 145 -180c100 0 168 55 168 55l35 -52s-93 -83 -213 -83c-160 0 -240 105 -240 270c0 160 100 280 245 280s210 -85 210 -235c0 -25 -5 -53 -5 -53zM149 325h240c0 75 -29 137 -109 137s-125 -62 -131 -137zM345 595l-210 130l50 75
l195 -155z" />
    <glyph glyph-name="ugrave" unicode="&#xf9;" horiz-adv-x="650" 
d="M385 595l-210 130l50 75l195 -155zM540 530v-450l85 -20v-55l-165 -5l-10 70c-24 -21 -103 -80 -185 -80c-110 0 -160 69 -160 179v281l-85 20v55l185 5v-351c0 -70 25 -104 90 -104c85 0 145 79 145 79v296l-85 20v55z" />
    <glyph glyph-name="agrave" unicode="&#xe0;" 
d="M535 5l-155 -5l-21 70c-34 -34 -94 -80 -164 -80c-95 0 -150 55 -150 150c0 115 90 155 230 155h80v80c0 60 -35 90 -95 90s-101 -15 -101 -15l-14 -75h-65l-5 125s110 40 195 40c116 0 185 -40 185 -155v-305l80 -20v-55zM147 145c0 -45 28 -75 73 -75
c75 0 135 80 135 80v80h-70c-100 0 -138 -25 -138 -85zM345 595l-210 130l50 75l195 -155z" />
    <glyph glyph-name="igrave" unicode="&#xec;" horiz-adv-x="335" 
d="M225 530v-450l75 -25v-55h-260v55l85 25v370l-85 20v55zM225 595l-210 130l50 75l195 -155z" />
    <glyph glyph-name="ograve" unicode="&#xf2;" horiz-adv-x="570" 
d="M295 540c150 0 235 -105 235 -265c0 -170 -100 -285 -250 -285s-240 90 -240 270c0 170 105 280 255 280zM290 460c-100 0 -145 -65 -145 -195c0 -120 40 -195 140 -195s140 70 140 200c0 110 -35 190 -135 190zM355 595l-210 130l50 75l195 -155z" />
    <glyph glyph-name="plus" unicode="+" horiz-adv-x="620" 
d="M50 225v80h218v225h85v-225h217v-80h-217v-225h-85v225h-218z" />
    <glyph glyph-name="slash" unicode="/" horiz-adv-x="506" 
d="M40 0l331 700h105l-331 -700h-105z" />
    <glyph glyph-name="multiply" unicode="&#xd7;" horiz-adv-x="600" 
d="M60 449l56 56l184 -184l184 184l56 -56l-184 -184l184 -184l-56 -56l-184 184l-184 -184l-56 56l184 184z" />
    <glyph glyph-name="brokenbar" unicode="&#xa6;" horiz-adv-x="300" 
d="M185 365h-80v400h80v-400zM185 -265h-80v410h80v-410z" />
    <glyph glyph-name="Eth" unicode="&#xd0;" horiz-adv-x="733" 
d="M60 330v79h85v211l-85 20v55l190 5h128c195 0 315 -120 315 -340s-130 -360 -330 -360h-303v60l85 20v250h-85zM249 620v-211h156v-79h-156v-250h119c125 0 210 85 210 275c0 185 -80 265 -205 265h-124z" />
    <glyph glyph-name="eth" unicode="&#xf0;" horiz-adv-x="595" 
d="M471 727l-94 -51c94 -85 158 -219 158 -411c0 -165 -100 -275 -250 -275s-240 90 -240 255c0 170 95 270 245 270c51 0 92 -18 123 -42c-23 63 -59 118 -112 162l-131 -70l-40 55l108 58c-29 16 -62 30 -98 42l30 63c52 -12 102 -32 148 -61l112 61zM295 435
c-100 0 -145 -65 -145 -185c0 -110 45 -180 140 -180c100 0 140 65 140 185c0 110 -35 180 -135 180z" />
    <glyph glyph-name="Scaron" unicode="&#x160;" horiz-adv-x="600" 
d="M515 500h-65l-34 107s-51 19 -106 18c-90 -1 -134 -47 -133 -97c3 -152 357 -94 360 -319c3 -150 -121 -217 -261 -220c-105 -1 -206 41 -206 41v175h80l20 -105s45 -27 110 -25c73 1 154 36 153 107c-3 154 -357 87 -361 329c-2 140 112 197 237 199
c95 2 211 -40 211 -40zM295 820l140 110l35 -45l-145 -140h-60l-152 140l42 45z" />
    <glyph glyph-name="scaron" unicode="&#x161;" horiz-adv-x="475" 
d="M230 675l140 110l35 -45l-145 -140h-60l-152 140l42 45zM399 375h-65l-16 78s-41 14 -86 12c-46 -2 -86 -16 -84 -67c4 -109 276 -65 279 -235c2 -115 -96 -169 -211 -173c-85 -4 -167 22 -167 22l-1 148h70l11 -86s40 -11 88 -9c60 2 112 19 110 79
c-4 110 -276 58 -279 238c-2 105 77 156 183 158c79 1 171 -30 171 -30z" />
    <glyph glyph-name="Aacute" unicode="&#xc1;" horiz-adv-x="725" 
d="M5 0v60l82 19l228 616l100 5l222 -621l83 -19v-60h-290v60l93 19l-38 111h-260l-39 -111l94 -19v-60h-275zM357 571l-105 -301h206zM545 860l-195 -125l-40 55l185 145z" />
    <glyph glyph-name="Iacute" unicode="&#xcd;" horiz-adv-x="355" 
d="M315 60v-60h-275v60l85 20v540l-85 20v55l275 5v-60l-85 -20v-540zM330 860l-195 -125l-40 55l185 145z" />
    <glyph glyph-name="Egrave" unicode="&#xc8;" horiz-adv-x="625" 
d="M370 735l-195 125l50 75l185 -145zM465 620h-215v-215h230v-80h-230v-245h230l20 100h65v-180h-505v60l85 20v540l-85 20v55l190 5h305v-170h-65z" />
    <glyph glyph-name="Igrave" unicode="&#xcc;" horiz-adv-x="360" 
d="M320 60v-60h-275v60l85 20v540l-85 20v55l275 5v-60l-85 -20v-540zM220 735l-195 125l50 75l185 -145z" />
    <glyph glyph-name="Oacute" unicode="&#xd3;" horiz-adv-x="755" 
d="M385 710c195 0 310 -135 310 -350c0 -220 -135 -370 -330 -370s-305 125 -305 355c0 220 125 365 325 365zM380 625c-130 0 -205 -85 -205 -275c0 -180 65 -275 195 -275s210 90 210 280c0 180 -70 270 -200 270zM510 860l-195 -125l-40 55l185 145z" />
    <glyph glyph-name="Ograve" unicode="&#xd2;" horiz-adv-x="755" 
d="M385 710c195 0 310 -135 310 -350c0 -220 -135 -370 -330 -370s-305 125 -305 355c0 220 125 365 325 365zM380 625c-130 0 -205 -85 -205 -275c0 -180 65 -275 195 -275s210 90 210 280c0 180 -70 270 -200 270zM430 735l-195 125l50 75l185 -145z" />
    <glyph glyph-name="Ugrave" unicode="&#xd9;" horiz-adv-x="790" 
d="M665 620v-335c0 -185 -65 -295 -275 -295c-195 0 -265 95 -265 280v350l-85 20v55l285 5v-60l-95 -20v-350c0 -150 50 -195 165 -195c125 0 165 55 165 210v335l-95 20v55l285 5v-60zM430 735l-195 125l50 75l185 -145z" />
    <glyph glyph-name="Uacute" unicode="&#xda;" horiz-adv-x="790" 
d="M665 620v-335c0 -185 -65 -295 -275 -295c-195 0 -265 95 -265 280v350l-85 20v55l285 5v-60l-95 -20v-350c0 -150 50 -195 165 -195c125 0 165 55 165 210v335l-95 20v55l285 5v-60zM554 860l-195 -125l-40 55l185 145z" />
    <glyph glyph-name="Atilde" unicode="&#xc3;" horiz-adv-x="725" 
d="M5 0v60l82 19l228 616l100 5l222 -621l83 -19v-60h-290v60l93 19l-38 111h-260l-39 -111l94 -19v-60h-275zM357 571l-105 -301h206zM242 805l-35 35s40 94 110 94s110 -46 170 -46c40 0 65 42 65 42l35 -35s-35 -90 -105 -90s-110 44 -170 44c-40 0 -70 -44 -70 -44z" />
    <glyph glyph-name="Otilde" unicode="&#xd5;" horiz-adv-x="755" 
d="M385 710c195 0 310 -135 310 -350c0 -220 -135 -370 -330 -370s-305 125 -305 355c0 220 125 365 325 365zM380 625c-130 0 -205 -85 -205 -275c0 -180 65 -275 195 -275s210 90 210 280c0 180 -70 270 -200 270zM222 805l-35 35s40 94 110 94s110 -46 170 -46
c40 0 65 42 65 42l35 -35s-35 -90 -105 -90s-110 44 -170 44c-40 0 -70 -44 -70 -44z" />
    <glyph glyph-name="Agrave" unicode="&#xc0;" horiz-adv-x="725" 
d="M440 735l-195 125l50 75l185 -145zM5 0v60l82 19l228 616l100 5l222 -621l83 -19v-60h-290v60l93 19l-38 111h-260l-39 -111l94 -19v-60h-275zM357 571l-105 -301h206z" />
    <glyph glyph-name="Eacute" unicode="&#xc9;" horiz-adv-x="625" 
d="M425 935l50 -75l-195 -125l-40 55zM555 700v-170h-65l-25 90h-215v-215h230v-80h-230v-245h230l20 100h65v-180h-505v60l85 20v540l-85 20v55l190 5h305z" />
    <glyph glyph-name="atilde" unicode="&#xe3;" 
d="M107 635l-35 35s40 94 110 94s110 -46 170 -46c40 0 65 42 65 42l35 -35s-35 -90 -105 -90s-110 44 -170 44c-40 0 -70 -44 -70 -44zM535 5l-155 -5l-21 70c-34 -34 -94 -80 -164 -80c-95 0 -150 55 -150 150c0 115 90 155 230 155h80v80c0 60 -35 90 -95 90
s-101 -15 -101 -15l-14 -75h-65l-5 125s110 40 195 40c116 0 185 -40 185 -155v-305l80 -20v-55zM147 145c0 -45 28 -75 73 -75c75 0 135 80 135 80v80h-70c-100 0 -138 -25 -138 -85z" />
    <glyph glyph-name="otilde" unicode="&#xf5;" horiz-adv-x="570" 
d="M295 540c150 0 235 -105 235 -265c0 -170 -100 -285 -250 -285s-240 90 -240 270c0 170 105 280 255 280zM290 460c-100 0 -145 -65 -145 -195c0 -120 40 -195 140 -195s140 70 140 200c0 110 -35 190 -135 190zM130 635l-35 35s40 94 110 94s110 -46 170 -46
c40 0 65 42 65 42l35 -35s-35 -90 -105 -90s-110 44 -170 44c-40 0 -70 -44 -70 -44z" />
    <glyph glyph-name="grave" unicode="`" horiz-adv-x="420" 
d="M290 635l-195 125l50 75l185 -145z" />
    <glyph glyph-name="Yacute" unicode="&#xdd;" horiz-adv-x="645" 
d="M185 0v60l85 20v179l-193 362l-67 19v55l250 5v-60l-68 -20l133 -280l147 280l-77 20v55l240 5v-60l-62 -18l-198 -361v-181l85 -20v-60h-275zM505 860l-195 -125l-40 55l185 145z" />
    <glyph glyph-name="yacute" unicode="&#xfd;" horiz-adv-x="575" 
d="M70 455l-60 15v55l235 5v-60l-70 -10l120 -350l110 345l-70 15v55l237 5v-60l-65 -10l-142 -396c-53 -139 -105 -304 -270 -304c-25 0 -64 5 -64 5l9 70h50c70 0 115 66 159 163zM485 725l-210 -130l-35 50l195 155z" />
    <glyph glyph-name="acircumflex" unicode="&#xe2;" 
d="M400 600l-138 108l-142 -108l-40 45l150 135l60 5l150 -140zM535 5l-155 -5l-21 70c-34 -34 -94 -80 -164 -80c-95 0 -150 55 -150 150c0 115 90 155 230 155h80v80c0 60 -35 90 -95 90s-101 -15 -101 -15l-14 -75h-65l-5 125s110 40 195 40c116 0 185 -40 185 -155v-305
l80 -20v-55zM147 145c0 -45 28 -75 73 -75c75 0 135 80 135 80v80h-70c-100 0 -138 -25 -138 -85z" />
    <glyph glyph-name="adieresis" unicode="&#xe4;" 
d="M535 5l-155 -5l-21 70c-34 -34 -94 -80 -164 -80c-95 0 -150 55 -150 150c0 115 90 155 230 155h80v80c0 60 -35 90 -95 90s-101 -15 -101 -15l-14 -75h-65l-5 125s110 40 195 40c116 0 185 -40 185 -155v-305l80 -20v-55zM147 145c0 -45 28 -75 73 -75
c75 0 135 80 135 80v80h-70c-100 0 -138 -25 -138 -85zM105 700c0 38 25 60 55 60c34 0 55 -22 55 -60s-25 -60 -55 -60c-34 0 -55 22 -55 60zM310 700c0 38 25 60 55 60c34 0 55 -22 55 -60s-25 -60 -55 -60c-34 0 -55 22 -55 60z" />
    <glyph glyph-name="ecircumflex" unicode="&#xea;" horiz-adv-x="530" 
d="M411 600l-138 108l-142 -108l-40 45l150 135l60 5l150 -140zM490 252l-345 -2c0 -110 59 -180 145 -180c100 0 168 55 168 55l35 -52s-93 -83 -213 -83c-160 0 -240 105 -240 270c0 160 100 280 245 280s210 -85 210 -235c0 -25 -5 -53 -5 -53zM149 325h240
c0 75 -29 137 -109 137s-125 -62 -131 -137z" />
    <glyph glyph-name="edieresis" unicode="&#xeb;" horiz-adv-x="530" 
d="M490 252l-345 -2c0 -110 59 -180 145 -180c100 0 168 55 168 55l35 -52s-93 -83 -213 -83c-160 0 -240 105 -240 270c0 160 100 280 245 280s210 -85 210 -235c0 -25 -5 -53 -5 -53zM149 325h240c0 75 -29 137 -109 137s-125 -62 -131 -137zM115 700c0 38 25 60 55 60
c34 0 55 -22 55 -60s-25 -60 -55 -60c-34 0 -55 22 -55 60zM320 700c0 38 25 60 55 60c34 0 55 -22 55 -60s-25 -60 -55 -60c-34 0 -55 22 -55 60z" />
    <glyph glyph-name="ccedilla" unicode="&#xe7;" horiz-adv-x="510" 
d="M465 365h-65l-15 85s-40 10 -90 10c-95 0 -150 -60 -150 -185c0 -135 60 -205 155 -205s155 60 155 60l35 -60s-75 -66 -170 -78v-36c53 -10 87 -42 87 -89c0 -52 -47 -86 -107 -86c-65 0 -114 28 -114 28l24 41s45 -21 85 -21c26 0 47 15 47 41c0 31 -32 51 -82 51v71
c-146 11 -220 113 -220 273s100 275 260 275c90 0 170 -40 170 -40z" />
    <glyph glyph-name="idieresis" unicode="&#xef;" horiz-adv-x="335" 
d="M225 530v-450l75 -25v-55h-260v55l85 25v370l-85 20v55zM15 700c0 38 25 60 55 60c34 0 55 -22 55 -60s-25 -60 -55 -60c-34 0 -55 22 -55 60zM210 700c0 38 25 60 55 60c34 0 55 -22 55 -60s-25 -60 -55 -60c-34 0 -55 22 -55 60z" />
    <glyph glyph-name="ocircumflex" unicode="&#xf4;" horiz-adv-x="570" 
d="M430 600l-138 108l-142 -108l-40 45l150 135l60 5l150 -140zM295 540c150 0 235 -105 235 -265c0 -170 -100 -285 -250 -285s-240 90 -240 270c0 170 105 280 255 280zM290 460c-100 0 -145 -65 -145 -195c0 -120 40 -195 140 -195s140 70 140 200
c0 110 -35 190 -135 190z" />
    <glyph glyph-name="odieresis" unicode="&#xf6;" horiz-adv-x="570" 
d="M295 540c150 0 235 -105 235 -265c0 -170 -100 -285 -250 -285s-240 90 -240 270c0 170 105 280 255 280zM290 460c-100 0 -145 -65 -145 -195c0 -120 40 -195 140 -195s140 70 140 200c0 110 -35 190 -135 190zM125 700c0 38 25 60 55 60c34 0 55 -22 55 -60
s-25 -60 -55 -60c-34 0 -55 22 -55 60zM330 700c0 38 25 60 55 60c34 0 55 -22 55 -60s-25 -60 -55 -60c-34 0 -55 22 -55 60z" />
    <glyph glyph-name="Odieresis" unicode="&#xd6;" horiz-adv-x="755" 
d="M385 710c195 0 310 -135 310 -350c0 -220 -135 -370 -330 -370s-305 125 -305 355c0 220 125 365 325 365zM380 625c-130 0 -205 -85 -205 -275c0 -180 65 -275 195 -275s210 90 210 280c0 180 -70 270 -200 270zM220 825c0 38 25 60 55 60c34 0 55 -22 55 -60
s-25 -60 -55 -60c-34 0 -55 22 -55 60zM425 825c0 38 25 60 55 60c34 0 55 -22 55 -60s-25 -60 -55 -60c-34 0 -55 22 -55 60z" />
    <glyph glyph-name="Udieresis" unicode="&#xdc;" horiz-adv-x="790" 
d="M325 700v-60l-95 -20v-350c0 -150 50 -195 165 -195c125 0 165 55 165 210v335l-95 20v55l285 5v-60l-85 -20v-335c0 -185 -65 -295 -275 -295c-195 0 -265 95 -265 280v350l-85 20v55zM230 825c0 38 25 60 55 60c34 0 55 -22 55 -60s-25 -60 -55 -60
c-34 0 -55 22 -55 60zM435 825c0 38 25 60 55 60c34 0 55 -22 55 -60s-25 -60 -55 -60c-34 0 -55 22 -55 60z" />
    <glyph glyph-name="udieresis" unicode="&#xfc;" horiz-adv-x="650" 
d="M540 530v-450l85 -20v-55l-165 -5l-10 70c-24 -21 -103 -80 -185 -80c-110 0 -160 69 -160 179v281l-85 20v55l185 5v-351c0 -70 25 -104 90 -104c85 0 145 79 145 79v296l-85 20v55zM155 700c0 38 25 60 55 60c34 0 55 -22 55 -60s-25 -60 -55 -60c-34 0 -55 22 -55 60z
M360 700c0 38 25 60 55 60c34 0 55 -22 55 -60s-25 -60 -55 -60c-34 0 -55 22 -55 60z" />
    <glyph glyph-name="ucircumflex" unicode="&#xfb;" horiz-adv-x="650" 
d="M465 600l-138 108l-142 -108l-40 45l150 135l60 5l150 -140zM540 530v-450l85 -20v-55l-165 -5l-10 70c-24 -21 -103 -80 -185 -80c-110 0 -160 69 -160 179v281l-85 20v55l185 5v-351c0 -70 25 -104 90 -104c85 0 145 79 145 79v296l-85 20v55z" />
    <glyph glyph-name="Edieresis" unicode="&#xcb;" horiz-adv-x="625" 
d="M465 620h-215v-215h230v-80h-230v-245h230l20 100h65v-180h-505v60l85 20v540l-85 20v55l190 5h305v-170h-65zM160 825c0 38 25 60 55 60c34 0 55 -22 55 -60s-25 -60 -55 -60c-34 0 -55 22 -55 60zM365 825c0 38 25 60 55 60c34 0 55 -22 55 -60s-25 -60 -55 -60
c-34 0 -55 22 -55 60z" />
    <glyph glyph-name="Idieresis" unicode="&#xcf;" horiz-adv-x="355" 
d="M315 60v-60h-275v60l85 20v540l-85 20v55l275 5v-60l-85 -20v-540zM20 825c0 38 25 60 55 60c34 0 55 -22 55 -60s-25 -60 -55 -60c-34 0 -55 22 -55 60zM225 825c0 38 25 60 55 60c34 0 55 -22 55 -60s-25 -60 -55 -60c-34 0 -55 22 -55 60z" />
    <glyph glyph-name="Adieresis" unicode="&#xc4;" horiz-adv-x="725" 
d="M5 0v60l82 19l228 616l100 5l222 -621l83 -19v-60h-290v60l93 19l-38 111h-260l-39 -111l94 -19v-60h-275zM357 571l-105 -301h206zM235 825c0 38 25 60 55 60c34 0 55 -22 55 -60s-25 -60 -55 -60c-34 0 -55 22 -55 60zM440 825c0 38 25 60 55 60c34 0 55 -22 55 -60
s-25 -60 -55 -60c-34 0 -55 22 -55 60z" />
    <glyph glyph-name="less" unicode="&#x3c;" horiz-adv-x="610" 
d="M160 265l400 -185v-85l-510 235v70l510 230v-85z" />
    <glyph glyph-name="equal" unicode="=" horiz-adv-x="600" 
d="M55 135v80h490v-80h-490zM55 330v80h490v-80h-490z" />
    <glyph glyph-name="greater" unicode="&#x3e;" horiz-adv-x="610" 
d="M50 80l400 185l-400 180v85l510 -230v-70l-510 -235v85z" />
    <glyph glyph-name="numbersign" unicode="#" horiz-adv-x="690" 
d="M90 380v65h119l21 155h80l-21 -155h145l21 155h80l-21 -155h111v-65h-120l-19 -145h114v-65h-123l-22 -170h-80l22 170h-145l-22 -170h-80l22 170h-107v65h116l19 145h-110zM280 380l-19 -145h145l19 145h-145z" />
    <glyph glyph-name="quotesingle" unicode="'" horiz-adv-x="215" 
d="M160 770l-20 -250h-75v250h95z" />
    <glyph glyph-name="bracketleft" unicode="[" horiz-adv-x="345" 
d="M305 -160v-65l-215 -5v1000l215 -5v-65l-120 -11v-838z" />
    <glyph glyph-name="bracketright" unicode="]" horiz-adv-x="345" 
d="M255 -230l-215 5v65l120 11v838l-120 11v65l215 5v-1000z" />
    <glyph glyph-name="asciicircum" unicode="^" horiz-adv-x="570" 
d="M282 600l-137 -280h-85l190 380h70l190 -380h-87z" />
    <glyph glyph-name="parenright" unicode=")" horiz-adv-x="330" 
d="M-1 770h90c110 -160 166 -295 166 -490c0 -200 -51 -350 -166 -510h-89c99 140 155 345 155 515c0 160 -61 340 -156 485z" />
    <glyph glyph-name="parenleft" unicode="(" horiz-adv-x="330" 
d="M240 770h90c-95 -145 -156 -325 -156 -485c0 -170 56 -375 155 -515h-89c-115 160 -166 310 -166 510c0 195 56 330 166 490z" />
    <glyph glyph-name="bar" unicode="|" horiz-adv-x="280" 
d="M180 755v-985h-80v985h80z" />
    <glyph glyph-name="asciitilde" unicode="~" horiz-adv-x="626" 
d="M106 209l-46 36s46 100 151 100c93 0 135 -70 215 -70c55 0 94 60 94 60l46 -36s-54 -104 -145 -104c-92 0 -147 70 -225 70c-55 0 -90 -56 -90 -56z" />
    <glyph glyph-name="Ccedilla" unicode="&#xc7;" horiz-adv-x="645" 
d="M595 491h-75l-27 114s-53 20 -128 20c-135 0 -210 -100 -210 -285c0 -180 90 -260 215 -260c105 0 200 80 200 80l40 -65s-81 -84 -205 -102v-37c51 -9 85 -38 85 -89c0 -52 -50 -87 -110 -87c-65 0 -117 31 -117 31l26 42s46 -23 86 -23c25 0 45 15 45 40
c0 30 -30 50 -80 50v71c-188 8 -300 126 -300 344c0 230 130 375 335 375c110 0 225 -50 225 -50z" />
    <glyph glyph-name="guillemotleft" unicode="&#xab;" horiz-adv-x="540" 
d="M365 265l115 -150l-60 -40l-145 160v60l145 160l60 -40zM150 265l110 -150l-60 -40l-140 160v60l140 160l60 -40z" />
    <glyph glyph-name="guillemotright" unicode="&#xbb;" horiz-adv-x="540" 
d="M60 115l115 150l-115 150l60 40l145 -160v-60l-145 -160zM280 115l110 150l-110 150l60 40l140 -160v-60l-140 -160z" />
    <glyph glyph-name="emdash" unicode="&#x2014;" horiz-adv-x="970" 
d="M0 285v80h970v-80h-970z" />
    <glyph glyph-name="divide" unicode="&#xf7;" horiz-adv-x="620" 
d="M245 60c0 45 30 70 65 70c40 0 65 -25 65 -70s-30 -70 -65 -70c-40 0 -65 25 -65 70zM245 470c0 45 30 70 65 70c40 0 65 -25 65 -70s-30 -70 -65 -70c-40 0 -65 25 -65 70zM50 225v80h520v-80h-520z" />
    <glyph glyph-name="guilsinglleft" unicode="&#x2039;" horiz-adv-x="315" 
d="M145 265l115 -150l-60 -40l-145 160v60l145 160l60 -40z" />
    <glyph glyph-name="guilsinglright" unicode="&#x203a;" horiz-adv-x="315" 
d="M60 115l115 150l-115 150l60 40l145 -160v-60l-145 -160z" />
    <glyph glyph-name="periodcentered" unicode="&#xb7;" horiz-adv-x="260" 
d="M63 305c0 47 30 72 67 72c42 0 67 -25 67 -72s-30 -72 -67 -72c-42 0 -67 25 -67 72z" />
    <glyph glyph-name="quotesinglbase" unicode="&#x201a;" horiz-adv-x="280" 
d="M55 -136c0 0 53 70 53 106c0 20 -23 38 -23 73c0 38 26 67 65 67c35 0 65 -18 65 -74s-45 -135 -115 -210z" />
    <glyph glyph-name="quotedblbase" unicode="&#x201e;" horiz-adv-x="475" 
d="M55 -136c0 0 53 70 53 106c0 20 -23 38 -23 73c0 38 26 67 65 67c35 0 65 -18 65 -74s-45 -135 -115 -210zM250 -136c0 0 53 70 53 106c0 20 -23 38 -23 73c0 38 26 67 65 67c35 0 65 -18 65 -74s-45 -135 -115 -210z" />
    <glyph glyph-name="ordmasculine" unicode="&#xba;" horiz-adv-x="495" 
d="M255 710c115 0 180 -70 180 -190c0 -125 -75 -205 -190 -205s-185 65 -185 190s80 205 195 205zM250 640c-60 0 -105 -40 -105 -130c0 -85 45 -125 105 -125s100 40 100 130c0 80 -40 125 -100 125zM70 165v70h355v-70h-355z" />
    <glyph glyph-name="plusminus" unicode="&#xb1;" horiz-adv-x="615" 
d="M55 302v78h210v160h85v-160h210v-78h-210v-162h-85v162h-210zM55 0v78h505v-78h-505z" />
    <glyph glyph-name="Zcaron" unicode="&#x17d;" horiz-adv-x="615" 
d="M305 820l140 110l35 -45l-145 -140h-60l-152 140l42 45zM70 700h505v-70l-400 -550h310l20 100h65v-180h-530v70l400 550h-280l-25 -100h-65v180z" />
    <glyph glyph-name="zcaron" unicode="&#x17e;" horiz-adv-x="475" 
d="M55 380v150h385v-75l-293 -380h204l14 80h70v-155h-400v75l292 380h-188l-14 -75h-70zM240 675l140 110l35 -45l-145 -140h-60l-152 140l42 45z" />
    <glyph glyph-name="quoteleft" unicode="&#x2018;" horiz-adv-x="280" 
d="M195 563c0 -38 -26 -67 -65 -67c-35 0 -65 18 -65 74s45 135 115 210l45 -38s-53 -70 -53 -106c0 -20 23 -38 23 -73z" />
    <glyph glyph-name="quoteright" unicode="&#x2019;" horiz-adv-x="280" 
d="M55 534c0 0 53 70 53 106c0 20 -23 38 -23 73c0 38 26 67 65 67c35 0 65 -18 65 -74s-45 -135 -115 -210z" />
    <glyph glyph-name="ydieresis" unicode="&#xff;" horiz-adv-x="575" 
d="M70 455l-60 15v55l235 5v-60l-70 -10l120 -350l110 345l-70 15v55l237 5v-60l-65 -10l-142 -396c-53 -139 -105 -304 -270 -304c-25 0 -64 5 -64 5l9 70h50c70 0 115 66 159 163zM135 700c0 38 25 60 55 60c34 0 55 -22 55 -60s-25 -60 -55 -60c-34 0 -55 22 -55 60z
M340 700c0 38 25 60 55 60c34 0 55 -22 55 -60s-25 -60 -55 -60c-34 0 -55 22 -55 60z" />
    <glyph glyph-name="Ydieresis" unicode="&#x178;" horiz-adv-x="645" 
d="M185 0v60l85 20v179l-193 362l-67 19v55l250 5v-60l-68 -20l133 -280l147 280l-77 20v55l240 5v-60l-62 -18l-198 -361v-181l85 -20v-60h-275zM160 825c0 38 25 60 55 60c34 0 55 -22 55 -60s-25 -60 -55 -60c-34 0 -55 22 -55 60zM365 825c0 38 25 60 55 60
c34 0 55 -22 55 -60s-25 -60 -55 -60c-34 0 -55 22 -55 60z" />
    <glyph glyph-name="cent" unicode="&#xa2;" horiz-adv-x="510" 
d="M315 700v-92c81 -5 150 -43 150 -43l-5 -130h-65l-15 85s-35 10 -85 10c-100 0 -145 -50 -145 -160c0 -120 50 -180 150 -180c85 0 140 50 140 50l39 -55s-75 -63 -164 -74v-111h-75v113c-131 19 -195 113 -195 247c0 123 66 222 195 244v96h75z" />
    <glyph glyph-name="bullet" unicode="&#x2022;" horiz-adv-x="505" 
d="M85 315c0 88 72 160 160 160s160 -72 160 -160s-72 -160 -160 -160s-160 72 -160 160z" />
    <glyph glyph-name="degree" unicode="&#xb0;" horiz-adv-x="410" 
d="M50 585c0 90 65 150 155 150s155 -55 155 -145c0 -95 -65 -155 -155 -155s-155 55 -155 150zM120 590c0 -60 30 -95 85 -95s85 35 85 95c0 55 -35 85 -85 85s-85 -30 -85 -85z" />
    <glyph glyph-name="onehalf" unicode="&#xbd;" horiz-adv-x="950" 
d="M225 0l405 700h90l-405 -700h-90zM350 345v-65h-265v65h95v265l-105 -65l-35 60l151 95h74v-355h85zM580 0v69c155 127 215 166 215 231c0 35 -19 60 -75 60c-36 0 -62 -10 -62 -10l-7 -60h-60l-3 109s72 26 135 26c99 0 162 -36 162 -120c0 -80 -45 -124 -185 -234h195
v-71h-315z" />
    <glyph glyph-name="onequarter" unicode="&#xbc;" horiz-adv-x="970" 
d="M549 150l203 280l98 -10v-264h70v-65h-70v-91h-85v91h-210zM765 335l-129 -179h129v179zM225 0l405 700h90l-405 -700h-90zM350 345v-65h-265v65h95v265l-105 -65l-35 60l151 95h74v-355h85z" />
    <glyph glyph-name="onesuperior" unicode="&#xb9;" horiz-adv-x="350" 
d="M330 345v-65h-270v65h95v265l-105 -65l-35 60l151 95h74v-355h90z" />
    <glyph glyph-name="threequarters" unicode="&#xbe;" horiz-adv-x="963" 
d="M218 0l405 700h90l-405 -700h-90zM112 575h-58l-4 111s80 19 140 19c95 0 150 -39 150 -107c0 -57 -38 -89 -88 -99c47 -5 96 -41 96 -93c0 -91 -74 -131 -174 -131c-74 0 -139 37 -139 37l20 60s60 -30 123 -30c52 0 82 23 82 63s-30 58 -94 58h-41v61h46
c55 0 84 21 84 64c0 31 -20 52 -70 52c-43 0 -68 -9 -68 -9zM542 150l203 280l98 -10v-264h70v-65h-70v-91h-85v91h-210zM758 335l-129 -179h129v179z" />
    <glyph glyph-name="twosuperior" unicode="&#xb2;" horiz-adv-x="390" 
d="M106 570h-60l-3 109s72 26 135 26c99 0 162 -36 162 -120c0 -80 -45 -124 -185 -234h195v-71h-315v69c155 127 215 166 215 231c0 35 -19 60 -75 60c-36 0 -62 -10 -62 -10z" />
    <glyph glyph-name="perthousand" unicode="&#x2030;" horiz-adv-x="1175" 
d="M155 0l405 700h90l-405 -700h-90zM45 530c0 115 70 180 165 180c90 0 155 -55 155 -170c0 -120 -70 -180 -165 -180c-90 0 -155 50 -155 170zM120 535c0 -70 25 -110 85 -110s85 40 85 110c0 65 -25 110 -85 110s-85 -45 -85 -110zM440 160c0 115 70 180 165 180
c90 0 155 -55 155 -170c0 -120 -70 -180 -165 -180c-90 0 -155 50 -155 170zM515 165c0 -70 25 -110 85 -110s85 40 85 110c0 65 -25 110 -85 110s-85 -45 -85 -110zM805 160c0 115 70 180 165 180c90 0 155 -55 155 -170c0 -120 -70 -180 -165 -180c-90 0 -155 50 -155 170
zM880 165c0 -70 25 -110 85 -110s85 40 85 110c0 65 -25 110 -85 110s-85 -45 -85 -110z" />
    <glyph glyph-name="Aring" unicode="&#xc5;" horiz-adv-x="725" 
d="M250 795c0 71 58 115 115 115s115 -39 115 -110c0 -50 -28 -86 -64 -103l221 -618l83 -19v-60h-290v60l93 19l-38 111h-260l-39 -111l94 -19v-60h-275v60l82 19l228 616c-37 16 -65 50 -65 100zM357 571l-105 -301h206zM310 797c0 -40 20 -62 55 -62c31 0 55 23 55 63
s-20 62 -55 62c-31 0 -55 -23 -55 -63z" />
    <glyph glyph-name="aring" unicode="&#xe5;" 
d="M167 705c0 71 58 115 115 115s115 -39 115 -110s-58 -115 -115 -115s-115 39 -115 110zM227 707c0 -40 20 -62 55 -62c31 0 55 23 55 63s-20 62 -55 62c-31 0 -55 -23 -55 -63zM535 5l-155 -5l-21 70c-34 -34 -94 -80 -164 -80c-95 0 -150 55 -150 150
c0 115 90 155 230 155h80v80c0 60 -35 90 -95 90s-101 -15 -101 -15l-14 -75h-65l-5 125s110 40 195 40c116 0 185 -40 185 -155v-305l80 -20v-55zM147 145c0 -45 28 -75 73 -75c75 0 135 80 135 80v80h-70c-100 0 -138 -25 -138 -85z" />
    <glyph glyph-name="percent" unicode="%" horiz-adv-x="815" 
d="M155 0l405 700h90l-405 -700h-90zM45 530c0 115 70 180 165 180c90 0 155 -55 155 -170c0 -120 -70 -180 -165 -180c-90 0 -155 50 -155 170zM120 535c0 -70 25 -110 85 -110s85 40 85 110c0 65 -25 110 -85 110s-85 -45 -85 -110zM440 160c0 115 70 180 165 180
c90 0 155 -55 155 -170c0 -120 -70 -180 -165 -180c-90 0 -155 50 -155 170zM515 165c0 -70 25 -110 85 -110s85 40 85 110c0 65 -25 110 -85 110s-85 -45 -85 -110z" />
    <glyph glyph-name="backslash" unicode="\" horiz-adv-x="506" 
d="M135 700l331 -700h-105l-331 700h105z" />
    <glyph glyph-name="oslash" unicode="&#xf8;" horiz-adv-x="580" 
d="M50 -70l69 116c-48 45 -74 116 -74 214c0 170 105 280 255 280c38 0 72 -7 102 -20l63 105l60 -35l-65 -109c49 -46 75 -118 75 -206c0 -170 -100 -285 -250 -285c-40 0 -76 7 -107 19l-68 -114zM295 460c-100 0 -145 -65 -145 -195c0 -52 7 -96 23 -128l185 309
c-18 9 -38 14 -63 14zM430 270c0 48 -7 90 -23 123l-184 -308c19 -10 41 -15 67 -15c100 0 140 70 140 200z" />
    <glyph glyph-name="ordfeminine" unicode="&#xaa;" horiz-adv-x="468" 
d="M83 580l-5 100s95 30 155 30c85 0 128 -35 128 -115v-208l57 -14v-45l-109 -5l-16 52s-55 -59 -117 -59c-72 0 -111 39 -111 112c0 82 62 111 162 111h54v50c0 32 -23 53 -62 53c-36 0 -71 -10 -71 -10l-10 -52h-55zM281 485h-48c-60 0 -90 -13 -90 -57
c0 -28 20 -46 52 -46c47 0 86 45 86 45v58zM73 165v70h345v-70h-345z" />
    <glyph glyph-name="dollar" unicode="$" horiz-adv-x="545" 
d="M315 -140h-75v130c-95 2 -175 35 -175 35v160h70l20 -92s36 -20 95 -20c70 0 141 28 141 92c0 139 -321 78 -321 295c0 107 77 161 170 174v116h75v-113c82 -6 160 -37 160 -37l-5 -150h-60l-25 90s-45 20 -95 20c-80 0 -120 -40 -120 -85c0 -137 320 -87 320 -290
c0 -111 -77 -171 -175 -189v-136z" />
    <glyph glyph-name="threesuperior" unicode="&#xb3;" horiz-adv-x="378" 
d="M97 575h-58l-4 111s80 19 140 19c95 0 150 -39 150 -107c0 -57 -38 -89 -88 -99c47 -5 96 -41 96 -93c0 -91 -74 -131 -174 -131c-74 0 -139 37 -139 37l20 60s60 -30 123 -30c52 0 82 23 82 63s-30 58 -94 58h-41v61h46c55 0 84 21 84 64c0 31 -20 52 -70 52
c-43 0 -68 -9 -68 -9z" />
    <glyph glyph-name="braceleft" unicode="{" horiz-adv-x="370" 
d="M340 775v-65c-95 0 -123 -25 -123 -105v-171c0 -67 -31 -116 -93 -139c62 -23 93 -72 93 -139v-211c0 -80 28 -105 123 -105v-65h-45c-120 0 -170 45 -170 170v211c0 60 -20 104 -95 104v70c75 0 95 44 95 104v171c0 125 50 170 170 170h45z" />
    <glyph glyph-name="braceright" unicode="}" horiz-adv-x="375" 
d="M40 775h45c120 0 170 -45 170 -170v-171c0 -60 20 -104 95 -104v-70c-75 0 -95 -44 -95 -104v-211c0 -125 -50 -170 -170 -170h-45v65c95 0 123 25 123 105v211c0 67 31 116 93 139c-62 23 -93 72 -93 139v171c0 80 -28 105 -123 105v65z" />
    <glyph glyph-name="Oslash" unicode="&#xd8;" horiz-adv-x="765" 
d="M600 785l65 -35l-68 -113c66 -61 103 -156 103 -277c0 -220 -135 -370 -330 -370c-56 0 -104 10 -145 30l-75 -125l-65 35l79 131c-65 59 -99 155 -99 284c0 220 125 365 325 365c55 0 104 -11 146 -32zM542 546l-268 -445c27 -17 61 -26 101 -26c130 0 210 90 210 280
c0 82 -15 146 -43 191zM488 599c-29 17 -63 26 -103 26c-130 0 -205 -85 -205 -275c0 -83 14 -148 41 -194z" />
    <glyph glyph-name="florin" unicode="&#x192;" horiz-adv-x="440" 
d="M-50 -120h55c65 0 85 35 90 95l36 400h-86l2 65l91 10l12 135c10 120 75 195 195 195c30 0 75 -6 75 -6l-5 -74h-70c-65 0 -85 -35 -90 -95l-12 -155h142l-2 -75h-147l-34 -380c-11 -120 -77 -195 -197 -195c-25 0 -65 6 -65 6z" />
    <glyph glyph-name="AE" unicode="&#xc6;" horiz-adv-x="959" 
d="M390 0v60l90 20v125h-220l-63 -128l78 -17v-60h-270v60l89 20l277 540l-85 20v55l126 5h477v-170h-65l-25 90h-214v-215h229v-80h-229v-245h229l20 100h65v-180h-509zM300 285h180v335h-15z" />
    <glyph glyph-name="Thorn" unicode="&#xde;" horiz-adv-x="605" 
d="M230 620v-55h105c145 0 230 -70 230 -185c0 -145 -95 -225 -265 -225h-70v-75l85 -20v-60h-275v60l85 20v540l-85 20v55l275 5v-60zM230 485v-250h70c105 0 165 45 165 130c0 70 -50 120 -135 120h-100z" />
    <glyph glyph-name="OE" unicode="&#x152;" horiz-adv-x="940" 
d="M535 700h330v-170h-65l-25 90h-215v-215h230v-80h-230v-245h230l20 100h65v-180h-350c-35 0 -100 -5 -160 -5c-195 0 -305 120 -305 350c0 220 125 360 325 360c50 0 110 -5 150 -5zM455 620c0 0 -45 5 -75 5c-130 0 -205 -85 -205 -275c0 -180 65 -275 195 -275
c35 0 85 5 85 5v540z" />
    <glyph glyph-name="oe" unicode="&#x153;" horiz-adv-x="915" 
d="M295 540c85 0 150 -42 189 -104c39 64 103 104 186 104c145 0 210 -85 210 -235c0 -25 -5 -53 -5 -53l-345 -2c0 -110 59 -180 145 -180c100 0 168 55 168 55l35 -52s-93 -83 -213 -83c-93 0 -153 40 -188 103c-39 -59 -103 -103 -197 -103c-150 0 -240 90 -240 270
c0 170 105 280 255 280zM290 460c-100 0 -145 -65 -145 -195c0 -120 40 -195 140 -195s145 70 145 200c0 110 -40 190 -140 190zM534 325h240c0 75 -29 137 -109 137s-125 -62 -131 -137z" />
    <glyph glyph-name="thorn" unicode="&#xfe;" horiz-adv-x="615" 
d="M315 -175v-55h-285v55l80 20v845l-85 20v55l185 5v-290s65 60 145 60c145 0 215 -105 215 -260c0 -170 -85 -290 -270 -290c-50 0 -90 14 -90 14v-159zM210 390v-300s30 -20 105 -20c116 0 150 90 150 200s-40 190 -130 190s-125 -70 -125 -70z" />
    <glyph glyph-name="sterling" unicode="&#xa3;" horiz-adv-x="625" 
d="M565 185v-185h-505v60l55 15c45 12 55 45 55 130c0 37 -4 82 -7 130h-103v68l98 11c-2 32 -3 64 -3 96c0 120 60 200 200 200c120 0 205 -30 205 -30v-140h-65l-15 83s-60 7 -120 7c-75 0 -105 -40 -105 -100c0 -38 1 -77 4 -115h166v-80h-161c3 -45 6 -87 6 -120
c0 -100 -45 -135 -45 -135h254l21 105h65z" />
    <glyph glyph-name="trademark" unicode="&#x2122;" horiz-adv-x="952" 
d="M316 365v-45h-207v45l65 13v265h-74l-12 -68h-48v125h345v-125h-48l-12 68h-74v-265zM717 320v45l57 13v217l-93 -167l-51 -6l-89 168v-212l62 -13v-45h-177v45l52 13v265l-52 10v44l139 3l96 -191l99 188l132 3v-45l-50 -12v-265l50 -13v-45h-175z" />
    <glyph glyph-name="paragraph" unicode="&#xb6;" horiz-adv-x="630" 
d="M565 695v-55l-85 -20v-790h-87v790h-79v-790h-174v60l90 20v396c-96 10 -170 91 -170 199c0 110 75 195 205 195h128z" />
    <glyph glyph-name="registered" unicode="&#xae;" horiz-adv-x="720" 
d="M55 450c0 175 130 305 305 305s305 -120 305 -295s-140 -305 -315 -305s-295 120 -295 295zM130 455c0 -140 85 -235 225 -235s235 95 235 235s-95 235 -235 235s-225 -95 -225 -235zM215 295v40l40 10v232l-40 8v37l150 3c65 0 117 -32 117 -92c0 -45 -22 -73 -62 -88
c1 -1 13 -8 28 -37l32 -63l40 -10v-40h-86l-40 85c-22 47 -29 52 -55 52h-19v-87l40 -10v-40h-145zM320 575v-97h35c35 0 60 18 60 50c0 29 -20 47 -55 47h-40z" />
    <glyph glyph-name="copyright" unicode="&#xa9;" horiz-adv-x="820" 
d="M45 345c0 210 155 365 365 365s365 -145 365 -355s-165 -365 -375 -365s-355 145 -355 355zM125 350c0 -170 110 -288 280 -288s290 118 290 288s-120 288 -290 288s-280 -118 -280 -288zM542 414h-56l-14 68c-10 3 -35 8 -62 8c-65 0 -95 -52 -95 -142s40 -128 100 -128
c54 0 107 44 107 44l27 -46s-59 -63 -139 -63c-110 0 -180 63 -180 188s70 208 187 208c63 0 127 -31 127 -31z" />
    <glyph glyph-name="germandbls" unicode="&#xdf;" horiz-adv-x="761" 
d="M70 450v65l110 10v55c0 125 85 200 215 200c135 0 235 -45 235 -155c0 -115 -131 -140 -131 -215c0 -110 228 -80 231 -245c2 -105 -102 -175 -207 -175c-85 0 -147 22 -147 22l-1 144h65l15 -81s21 -12 69 -10c55 2 103 26 101 80c-4 110 -230 70 -230 250
c0 120 135 125 135 220c0 70 -65 90 -130 90c-70 0 -120 -40 -120 -105v-600h-185v55l85 25v370h-110z" />
    <glyph glyph-name="ae" unicode="&#xe6;" horiz-adv-x="835" 
d="M800 305c0 -25 -5 -53 -5 -53l-345 -2c0 -110 59 -180 145 -180c100 0 168 55 168 55l35 -52s-93 -83 -213 -83c-97 0 -161 38 -197 106c-19 -25 -91 -106 -193 -106c-95 0 -150 55 -150 150c0 115 90 155 230 155h80v80c0 60 -35 90 -95 90s-101 -15 -101 -15l-14 -75
h-65l-5 125s110 40 195 40c76 0 130 -20 156 -70c40 44 96 70 164 70c145 0 210 -85 210 -235zM355 230h-70c-100 0 -140 -25 -140 -85c0 -45 30 -75 75 -75c75 0 135 85 135 85v75zM454 325h240c0 75 -29 137 -109 137s-125 -62 -131 -137z" />
    <glyph glyph-name="mu" unicode="&#xb5;" horiz-adv-x="655" 
d="M545 530v-450l85 -20v-55l-165 -5l-10 70c-24 -20 -102 -80 -185 -80c-22 0 -42 4 -60 10v-230h-100v391v8v281l-85 20v55l185 5v-361c2 -63 28 -94 90 -94c85 0 145 79 145 79v296l-85 20v55z" />
    <glyph glyph-name="mu" unicode="&#x3bc;" horiz-adv-x="655" 
d="M545 530v-450l85 -20v-55l-165 -5l-10 70c-24 -20 -102 -80 -185 -80c-22 0 -42 4 -60 10v-230h-100v391v8v281l-85 20v55l185 5v-361c2 -63 28 -94 90 -94c85 0 145 79 145 79v296l-85 20v55z" />
    <glyph glyph-name="logicalnot" unicode="&#xac;" horiz-adv-x="615" 
d="M60 275v80h500v-270h-85v190h-415z" />
    <glyph glyph-name="uni00A0" unicode="&#xa0;" horiz-adv-x="410" 
 />
    <glyph glyph-name="currency" unicode="&#xa4;" horiz-adv-x="578" 
d="M528 486l-76 -76c19 -31 29 -68 29 -110s-12 -80 -32 -111l79 -79l-49 -52l-81 80c-31 -21 -69 -33 -112 -33s-80 11 -109 30l-78 -77l-49 52l78 78c-18 30 -27 66 -27 107s11 78 31 109l-82 82l49 52l83 -82c31 21 70 34 114 34c41 0 77 -11 105 -29l78 77zM186 298
c0 -75 33 -123 105 -123s105 48 105 123s-32 122 -105 122c-72 0 -105 -47 -105 -122z" />
    <glyph glyph-name="ampersand" unicode="&#x26;" horiz-adv-x="670" 
d="M550 330v-120c0 -140 -95 -220 -245 -220c-165 0 -235 85 -235 205s135 185 135 185s-118 31 -118 150c0 124 91 180 233 180c88 0 190 -40 190 -40l-5 -140h-64l-21 80s-40 15 -110 15c-80 0 -120 -40 -120 -100c0 -70 60 -115 130 -115h310v-60zM450 205v125h-135
c-75 0 -140 -55 -140 -130c0 -85 55 -125 140 -125s135 45 135 130z" />
    <glyph glyph-name="R" unicode="R" horiz-adv-x="650" 
d="M40 0v60l85 20v540l-85 20v55l190 5h110c141 0 225 -68 225 -180c0 -97 -44 -163 -130 -195c16 -14 34 -40 60 -90l79 -159l71 -16v-60h-150l-85 185c-47 100 -69 120 -135 120h-45v-225l85 -20v-60h-275zM230 620v-240h75c98 0 155 46 155 125c0 67 -52 115 -125 115
h-105z" />
    <glyph glyph-name="cedilla" unicode="&#xb8;" horiz-adv-x="436" 
d="M184 0h60v-43c54 -9 87 -41 87 -87c0 -53 -44 -89 -109 -89s-112 28 -112 28l24 41s41 -21 77 -21c33 0 55 17 55 43c0 31 -31 49 -82 49v79z" />
    <glyph glyph-name="at" unicode="@" horiz-adv-x="820" 
d="M299 465l-18 57s75 31 140 31c87 0 128 -37 128 -115v-179c0 -28 18 -44 47 -44c52 0 84 53 84 140c0 172 -103 280 -265 280c-167 0 -270 -108 -270 -285c0 -180 92 -285 250 -285c65 0 120 25 120 25l40 -60s-61 -40 -165 -40c-210 0 -325 126 -325 355
c0 220 141 365 355 365c209 0 340 -134 340 -350c0 -126 -65 -205 -169 -205c-91 0 -109 66 -109 66s-56 -62 -118 -62c-72 0 -111 39 -111 112c0 75 52 111 162 111h54v48c0 37 -23 55 -68 55c-38 0 -102 -20 -102 -20zM469 328h-48c-65 0 -90 -16 -90 -57
c0 -28 20 -46 52 -46c47 0 86 45 86 45v58z" />
    <glyph glyph-name="section" unicode="&#xa7;" horiz-adv-x="545" 
d="M451 590h-60l-24 105s-29 5 -54 5c-62 0 -98 -40 -98 -90c0 -130 270 -155 270 -335c0 -81 -41 -126 -72 -147c17 -26 28 -57 28 -93c0 -110 -78 -185 -190 -185c-85 0 -145 30 -145 30l5 160h64l21 -105s22 -5 57 -5c57 0 93 40 93 90c0 130 -271 155 -271 335
c0 81 41 126 72 147c-17 26 -27 56 -27 93c0 110 79 185 191 185c85 0 145 -30 145 -30zM390 260c0 84 -113 122 -193 189c-12 -12 -27 -36 -27 -79c0 -85 114 -122 194 -189c11 12 26 35 26 79z" />
    <glyph glyph-name="circumflex" unicode="&#x2c6;" horiz-adv-x="520" 
d="M395 650l-133 93l-137 -93l-40 45l145 120l60 5l145 -125z" />
    <glyph glyph-name="Acircumflex" unicode="&#xc2;" horiz-adv-x="725" 
d="M5 0v60l82 19l228 616l100 5l222 -621l83 -19v-60h-290v60l93 19l-38 111h-260l-39 -111l94 -19v-60h-275zM357 571l-105 -301h206zM495 750l-133 93l-137 -93l-40 45l145 120l60 5l145 -125z" />
    <glyph glyph-name="Ecircumflex" unicode="&#xca;" horiz-adv-x="625" 
d="M455 750l-133 93l-137 -93l-40 45l145 120l60 5l145 -125zM465 620h-215v-215h230v-80h-230v-245h230l20 100h65v-180h-505v60l85 20v540l-85 20v55l190 5h305v-170h-65z" />
    <glyph glyph-name="Icircumflex" unicode="&#xce;" horiz-adv-x="376" 
d="M316 750l-126 93l-130 -93l-40 45l138 120l60 5l138 -125zM328 60v-60h-275v60l85 20v540l-85 20v55l275 5v-60l-85 -20v-540z" />
    <glyph glyph-name="Ocircumflex" unicode="&#xd4;" horiz-adv-x="755" 
d="M385 710c195 0 310 -135 310 -350c0 -220 -135 -370 -330 -370s-305 125 -305 355c0 220 125 365 325 365zM380 625c-130 0 -205 -85 -205 -275c0 -180 65 -275 195 -275s210 90 210 280c0 180 -70 270 -200 270zM515 735l-138 108l-142 -108l-40 45l150 135l60 5
l150 -140z" />
    <glyph glyph-name="Ucircumflex" unicode="&#xdb;" horiz-adv-x="790" 
d="M665 620v-335c0 -185 -65 -295 -275 -295c-195 0 -265 95 -265 280v350l-85 20v55l285 5v-60l-95 -20v-350c0 -150 50 -195 165 -195c125 0 165 55 165 210v335l-95 20v55l285 5v-60zM530 750l-133 93l-137 -93l-40 45l145 120l60 5l145 -125z" />
    <glyph glyph-name="icircumflex" unicode="&#xee;" horiz-adv-x="345" 
d="M230 530v-450l75 -25v-55h-260v55l85 25v370l-85 20v55zM300 600l-128 108l-132 -108l-40 45l140 135l60 5l140 -140z" />
    <glyph glyph-name="q" unicode="q" horiz-adv-x="580" 
d="M305 -230v55l100 20v203c-33 -26 -86 -58 -150 -58c-150 0 -210 100 -210 260c0 170 95 290 275 290c110 0 185 -20 185 -20v-675l80 -20v-55h-280zM405 450c0 0 -30 10 -100 10c-116 0 -155 -90 -155 -200s35 -190 125 -190s130 65 130 65v315z" />
    <glyph glyph-name="Euro" unicode="&#x20ac;" horiz-adv-x="628" 
d="M15 380v70h71c16 92 74 260 284 260c110 0 193 -40 193 -40l-5 -139h-65l-13 80s-50 19 -125 19c-111 0 -145 -109 -156 -180h246v-70h-430zM15 310v-70h75c3 -35 30 -250 265 -250c145 0 233 95 233 95l-40 60s-78 -68 -183 -68c-135 0 -160 135 -164 163h244v70h-430z
" />
    <glyph glyph-name="yen" unicode="&#xa5;" horiz-adv-x="645" 
d="M97 290v70h124l-144 261l-67 19v55l250 5v-60l-68 -20l133 -270l147 270l-77 20v55l240 5v-60l-62 -18l-149 -262h123v-70h-450zM97 155v70h450v-70h-172v-75l85 -20v-60h-275v60l85 20v75h-173z" />
    <glyph glyph-name="dagger" unicode="&#x2020;" horiz-adv-x="495" 
d="M290 755l-5 -155h170v-70l-208 -25l-207 25v70h169l-4 150zM195 455l10 -415l42 -40l43 40l10 415l-53 -10z" />
    <glyph glyph-name="daggerdbl" unicode="&#x2021;" horiz-adv-x="495" 
d="M40 530v70h169l-4 150l85 5l-5 -155h170v-70l-208 -25zM199 303l6 -263l42 -40l43 40l6 263l-49 -10zM81 396v73l166 -24l166 24v-73l-166 -42z" />
    <glyph glyph-name="asterisk" unicode="*" horiz-adv-x="403" 
d="M196 586l-26 23l-13 124l73 2l-7 -127l115 49l25 -70l-125 -29l84 -99l-58 -44l-69 113l9 34l34 -4l-29 19l14 31zM170 609l13 -32l-30 -17l35 2l7 -34l-65 -113l-60 42l83 103l-128 25l24 70z" />
    <glyph glyph-name="d" unicode="d" horiz-adv-x="615" 
d="M505 770v-690l85 -20v-55l-170 -5l-8 57c-29 -29 -81 -67 -157 -67c-145 0 -210 105 -210 260c0 170 85 290 265 290c37 0 69 -7 95 -16v166l-85 20v55zM405 145v295s-35 20 -105 20c-116 0 -150 -90 -150 -200s35 -190 125 -190c85 0 130 75 130 75z" />
  </font>
</defs>
</svg>
